They're here! More Muvipix.com Guides by Steve Grisetti!
The Muvipix.com Guides to Premiere & Photoshop Elements 2020
As well as The Muvipix.com Guide to Vegas Movie Studio Platinum 17
Because there are stories to tell
muvipix.com

Question about 5.1 audio

Specific to Premiere Elements version 2020

Question about 5.1 audio

Postby fader5 » Fri Jun 12, 2020 3:33 pm

I have a question about 5.1 audio. I recorded a local show that was on a local broadcast station on my home run duo. It saved the file as a .TS and I imported into PRE 2020 and I'm unable to add an effects to the audio. I audio seems a little muffled and I need to tweak it.
Thanks
Wilbur
You do not have the required permissions to view the files attached to this post.
fader5
New User
New User
 
Posts: 2
Joined: Tue Apr 30, 2013 6:11 pm

Re: Question about 5.1 audio

Postby Steve Grisetti » Fri Jun 12, 2020 8:05 pm

We might need more technical information about the video/audio you're trying to edit. You don't saw how you digitized it, but the software could have used some strange compression systems.

Open your .TS clip in the free download MediaInfo. In MediaInfo, set View to Text and then copy the text report and paste it to this forum.

The simplest solution may be converting the video to a more standardized codec using Handbrake.
3.6 ghz i7-7700 running Windows 10 Pro 64-bit with 16 gigs RAM and a 2 terrabyte HD. Also iMac 2.6 ghz dual-core, 4 gigs of RAM, running OSX El Capitan and Boot Camp Windows 10 64-bit.
User avatar
Steve Grisetti
Super Moderator
Super Moderator
 
Posts: 13428
Joined: Sat Feb 17, 2007 5:11 pm
Location: Milwaukee, Wisconsin

Re: Question about 5.1 audio

Postby fader5 » Sat Jun 13, 2020 6:51 am

Here's the information from the file. I can change the Audio output in Handbrake to 5.1 or 2.0 I'll try both now
You do not have the required permissions to view the files attached to this post.
fader5
New User
New User
 
Posts: 2
Joined: Tue Apr 30, 2013 6:11 pm

Re: Question about 5.1 audio

Postby Steve Grisetti » Sat Jun 13, 2020 8:31 am

Here is the info on your media file.

General
ID : 1 (0x1)
Complete name : C:\Users\fader\Desktop\It's About You (2020) - 2020-06-12 12 30 00 - It's About You.ts
Format : MPEG-TS
File size : 1.93 GiB
Duration : 27 min 31 s
Overall bit rate mode : Variable
Overall bit rate : 10.1 Mb/s

Video
ID : 256 (0x100)
Menu ID : 1 (0x1)
Format : MPEG Video
Format version : Version 2
Format profile : Main@High
Format settings : CustomMatrix / BVOP
Format settings, BVOP : Yes
Format settings, Matrix : Custom
Format settings, GOP : Variable
Format settings, picture structure : Frame
Codec ID : 2
Duration : 27 min 32 s
Bit rate mode : Variable
Bit rate : 8 974 kb/s
Maximum bit rate : 17.6 Mb/s
Width : 1 920 pixels
Height : 1 080 pixels
Display aspect ratio : 16:9
Active Format Description : Full frame 16:9 image
Frame rate : 29.970 (30000/1001) FPS
Color space : YUV
Chroma subsampling : 4:2:0
Bit depth : 8 bits
Scan type : Interlaced
Scan order : Top Field First
Compression mode : Lossy
Bits/(Pixel*Frame) : 0.144
Time code of first frame : 14:42:58;04
Time code source : Group of pictures header
GOP, Open/Closed : Open
Stream size : 1.73 GiB (89%)

Audio #1
ID : 257 (0x101)
Menu ID : 1 (0x1)
Format : AC-3
Format/Info : Audio Coding 3
Commercial name : Dolby Digital
Codec ID : 129
Duration : 27 min 32 s
Bit rate mode : Constant
Bit rate : 384 kb/s
Channel(s) : 6 channels
Channel layout : L R C LFE Ls Rs
Sampling rate : 48.0 kHz
Frame rate : 31.250 FPS (1536 SPF)
Compression mode : Lossy
Delay relative to video : -39 ms
Stream size : 75.7 MiB (4%)
Language : English
Service kind : Complete Main

Audio #2
ID : 258 (0x102)
Menu ID : 1 (0x1)
Format : AC-3
Format/Info : Audio Coding 3
Commercial name : Dolby Digital
Codec ID : 129
Duration : 27 min 32 s
Bit rate mode : Constant
Bit rate : 192 kb/s
Channel(s) : 2 channels
Channel layout : L R
Sampling rate : 48.0 kHz
Frame rate : 31.250 FPS (1536 SPF)
Compression mode : Lossy
Delay relative to video : -71 ms
Stream size : 37.8 MiB (2%)
Language : English
Service kind : Complete Main

Text #1
ID : 256 (0x100)-CC1
Menu ID : 1 (0x1)
Format : EIA-608
Muxing mode : A/53 / DTVCC Transport
Muxing mode, more info : Muxed in Video #1
Duration : 27 min 32 s
Bit rate mode : Constant
Stream size : 0.00 Byte (0%)
CaptionServiceName : CC1

Text #2
ID : 256 (0x100)-CC3
Menu ID : 1 (0x1)
Format : EIA-608
Muxing mode : A/53 / DTVCC Transport
Muxing mode, more info : Muxed in Video #1
Duration : 27 min 32 s
Bit rate mode : Constant
Stream size : 0.00 Byte (0%)
CaptionServiceName : CC3

Text #3
ID : 256 (0x100)-1
Menu ID : 1 (0x1)
Format : EIA-708
Muxing mode : A/53 / DTVCC Transport
Muxing mode, more info : Muxed in Video #1
Duration : 27 min 32 s
Bit rate mode : Constant
Stream size : 0.00 Byte (0%)

Text #4
ID : 256 (0x100)-2
Menu ID : 1 (0x1)
Format : EIA-708
Muxing mode : A/53 / DTVCC Transport
Muxing mode, more info : Muxed in Video #1
Duration : 27 min 32 s
Bit rate mode : Constant
Stream size : 0.00 Byte (0%)

Menu
ID : 4096 (0x1000)
Menu ID : 1 (0x1)
Duration : 27 min 31 s
List : 256 (0x100) (MPEG Video) / 257 (0x101) (AC-3, English) / 258 (0x102) (AC-3, English)
Language : / English / English
Service name : Service01
Service provider : FFmpeg
Service type : digital television
3.6 ghz i7-7700 running Windows 10 Pro 64-bit with 16 gigs RAM and a 2 terrabyte HD. Also iMac 2.6 ghz dual-core, 4 gigs of RAM, running OSX El Capitan and Boot Camp Windows 10 64-bit.
User avatar
Steve Grisetti
Super Moderator
Super Moderator
 
Posts: 13428
Joined: Sat Feb 17, 2007 5:11 pm
Location: Milwaukee, Wisconsin

Re: Question about 5.1 audio

Postby Steve Grisetti » Sat Jun 13, 2020 8:33 am

I'd definitely recommend converting it to standardized MP4 using Handbrake, using these steps. There are a couple of issues in your file and a conversion will make them all go away.


3.6 ghz i7-7700 running Windows 10 Pro 64-bit with 16 gigs RAM and a 2 terrabyte HD. Also iMac 2.6 ghz dual-core, 4 gigs of RAM, running OSX El Capitan and Boot Camp Windows 10 64-bit.
User avatar
Steve Grisetti
Super Moderator
Super Moderator
 
Posts: 13428
Joined: Sat Feb 17, 2007 5:11 pm
Location: Milwaukee, Wisconsin

Re: Question about 5.1 audio

Postby sidd finch » Sun Jun 14, 2020 9:19 am

Steve is right. Handbrake resolves a lot of video issues and makes editing a much easier process.

Sidd
Vivere memento. – 'Remember to live..'
User avatar
sidd finch
Moderator
Moderator
 
Posts: 4933
Joined: Mon Apr 23, 2007 5:20 pm
Location: Cyberspace

Re: Question about 5.1 audio

Postby Chuck Engels » Sun Jun 14, 2020 11:24 am

You could also try to just export the audio from the project and then import and replace the audio with the new file that was created by premiere elements. Might be worth a shot as an experiment at least.
1. Thinkpad W530 Laptop, Core i7-3820QM Processor 8M Cache 3.70 GHz, 16 GB DDR3, NVIDIA Quadro K1000M 2GB Memory.

2. Cybertron PC - Liquid Cooled AMD FX6300, 6 cores, 3.50ghz - 32GB DDR3 - MSI GeForce GTX 960 Gaming 4G, 4GB Video Ram, 1024 Cuda Cores.
User avatar
Chuck Engels
Super Moderator
Super Moderator
 
Posts: 17876
Joined: Sun Feb 11, 2007 10:58 pm
Location: Atlanta, GA


Return to Premiere Elements 2020 (NEW) 


Similar topics


Who is online

Users browsing this forum: No registered users and 2 guests