They're here! More Muvipix.com Guides by Steve Grisetti!
The Muvipix.com Guides to Premiere & Photoshop Elements 2020
As well as The Muvipix.com Guide to Cyberlink PowerDirector 18
Because there are stories to tell
muvipix.com

Video Format

Specific to Premiere Elements version 2019

Video Format

Postby GriffinR » Thu Dec 26, 2019 12:17 pm

Hello,

PE is telling me that the following file is not supported. Can I change the file format? Thank ou

eneral
Complete name : F:\Video Active Backup 03.26.2019\Kamren - Project\Taylor.MOV
Format : MPEG-4
Format profile : QuickTime
Codec ID : qt 0000.00 (qt )
File size : 68.1 MiB
Duration : 1 min 11 s
Overall bit rate mode : Variable
Overall bit rate : 7 978 kb/s
Encoded date : UTC 2019-12-24 17:18:50
Tagged date : UTC 2019-12-24 17:18:51
Writing library : Apple QuickTime
com.apple.quicktime.make : Apple
com.apple.quicktime.model : iPhone 7 Plus
com.apple.quicktime.software : 11.3.1
com.apple.quicktime.creationdate : 2018-05-13T17:42:54-0400

Video
ID : 1
Format : HEVC
Format/Info : High Efficiency Video Coding
Format profile : Main@L4@Main
Codec ID : hvc1
Codec ID/Info : High Efficiency Video Coding
Duration : 1 min 11 s
Source duration : 1 min 11 s
Bit rate : 7 859 kb/s
Width : 1 920 pixels
Height : 1 080 pixels
Display aspect ratio : 16:9
Rotation : 90°
Frame rate mode : Variable
Frame rate : 30.000 FPS
Minimum frame rate : 30.000 FPS
Maximum frame rate : 60.000 FPS
Color space : YUV
Chroma subsampling : 4:2:0
Bit depth : 8 bits
Bits/(Pixel*Frame) : 0.126
Stream size : 67.1 MiB (99%)
Source stream size : 67.1 MiB (99%)
Title : Core Media Video
Encoded date : UTC 2019-12-24 17:18:50
Tagged date : UTC 2019-12-24 17:18:51
Color range : Limited
Color primaries : BT.709
Transfer characteristics : BT.709
Matrix coefficients : BT.709
Codec configuration box : hvcC

Audio
ID : 2
Format : AAC LC
Format/Info : Advanced Audio Codec Low Complexity
Codec ID : mp4a-40-2
Duration : 1 min 11 s
Source duration : 1 min 11 s
Bit rate mode : Variable
Bit rate : 100.0 kb/s
Channel(s) : 1 channel
Channel layout : C
Sampling rate : 44.1 kHz
Frame rate : 43.066 FPS (1024 SPF)
Compression mode : Lossy
Stream size : 874 KiB (1%)
Source stream size : 874 KiB (1%)
Title : Core Media Audio
Encoded date : UTC 2019-12-24 17:18:50
Tagged date : UTC 2019-12-24 17:18:51

Other #1
Type : meta
Duration : 1 min 11 s
Bit rate mode : VBR

Other #2
Type : meta
Duration : 1 min 11 s
GriffinR
Registered User
Registered User
 
Posts: 41
Joined: Mon Sep 04, 2017 9:30 pm
Location: Frederick, MD

Re: Video Format

Postby sidd finch » Thu Dec 26, 2019 1:36 pm

Your HEVC video needs to be converted. HEVC is H.265 and your MP4 video is H.264

Handbrake is free and will convert.

Sidd
Omnium Rerum Principia Parva Sunt – 'The beginnings of all things are small.'
User avatar
sidd finch
Moderator
Moderator
 
Posts: 4644
Joined: Mon Apr 23, 2007 5:20 pm
Location: Cyberspace

Re: Video Format

Postby GriffinR » Thu Dec 26, 2019 9:07 pm

Thank you. This worked perfectly.
GriffinR
Registered User
Registered User
 
Posts: 41
Joined: Mon Sep 04, 2017 9:30 pm
Location: Frederick, MD

Re: Video Format

Postby sidd finch » Sat Dec 28, 2019 10:12 am

Cool, glad to know it worked for you.

Sidd
Omnium Rerum Principia Parva Sunt – 'The beginnings of all things are small.'
User avatar
sidd finch
Moderator
Moderator
 
Posts: 4644
Joined: Mon Apr 23, 2007 5:20 pm
Location: Cyberspace


Return to PRE version 2019 


Similar topics


Who is online

Users browsing this forum: No registered users and 2 guests

cron